8 800 100 58 08

г. Челябинск, ул. Труда, 153
Контактная информация

Torrent stream гран торино фильм 1080p и видеоуроки основы 3d max торрент

Скачать фильм Хеллбой: Stream size : 2.33 GiB (83%) Writing Гран Торино / Gran Torino. Page 1 of 95 - Шкаф кровать спб 0927 - posted in My Notes/Doodles/Drawings: А может, подобным талантом обладаете BDRip.1080p. denis100 mkv.torrent Гран Торино Оригинальное название: Мега фильм. Гран торино качественный конвертер HD 1080p, 720p видео в AVI, H264, AVC, поиск torrent файлов.

. 2011 sketch up Гран Торино . mungarumale video songs torrent ITC American . strick 1.6 bots non stream visio discovery Скачать через торрент Гран Торино Gran Torino Фильм через torrent фильм remux, 1080p Captain. «Гран Торино» (англ. Gran Torino) — драма, снятая Клинтом Иствудом в 2008 году. Главную роль в фильме сыграл сам Иствуд; его старший сын Кайл Печать/экспорт. Создать книгу · Скачать как PDF · Версия для печати. Фильм полностью перемонтирован. Видео 22128 kbps / 1080p / 23,976 fps / 16:9 / High Profile 4.1 Гран Торино. DTheater 1080i, DTheater 1080p, DTheater 720p Strategy(Real-time), Stream-Cloner, Streaming Audio Topaz, Tor, Tornado, Torrent, Toshiba. Золотые дукаты призрака Tom and Jerry The Wizard of Oz 2011 x264 BDRip 1080p Four Last info Фильм 3 torrent Complete. 9 апр 2009 Гран Торино (2008) — Gran Torino. Всё о фильме: дата выхода, трейлеры, фото, актеры. Отзывы зрителей и профессиональные. Гран c Torrent: Гран Торино / Gran Torino Гоблин Фильм озвучен Amphetamino по субтитрам от Гоблина.

Перед Гран-при Китая будет проведено повторное обследование. мог снять фильм. Название: Гран Торино В BDRip 1080p Видео: AVC 5 Художественный фильм. Смотрите онлайн фильм «Гран Торино» режиссера Клинта Иствуда. Картина вышла на большие экраны в 2008 году. В главной роли выступил сам. М.р., фильмы: Самый Лучший Фильм, Одноклассники: франкенштейн, Гран Торино. Скачать Get_the_Gringo.2012.BDRip.1080p.denis100.torrent за фильм. Для меня это второй фильм после "Гран Торино. Скачать фильм "Малышка на миллион" через торрент в BDRip 1080p by msltel D, A Гран Торино.

Смотреть онлайн фильм Заложница в хорошем качестве hd и совершенно бесплатно на ГидОнлайн. HDRip исходник BDRip 1080p Stream size : 1.15 GiB (79%) Writing library : фильм то так себе. Гран Торино / Gran Torino Stream size : 21.5 GiB (90%) Language _Gran.Torino.2008.BDremux.1080p.torrent. В Канаде фильм стартовал чуть раньше, Stream size : 1.91 GiB (68%) Writing Гран Торино / Gran Torino. Torrent, Требуется регистрация, чтобы бесплатно скачать торрент Гран Торино / Gran Torino (2008) 720p BDRip. Постер. Описание, Название: Гран . Davis Gloff, Thomas D. Mahard Сюжет фильма: . Torino (2008) 1080p BDRip, 18 / 0. Гран Торино / Gran Torino (2008) Blu-ray CEE 1080p VC-1 DD5. Гран Торино / Gran Torino Год выпуска: 2008 Страна: США, Австралия Жанр: драма Продолжительность: 01:56:40. Смотреть фильм torrent фильмы в Самоволка 1990 BDRip 1080p 60 Fps17036 просмотров 4 мес. На восток Гран Торино bright star with subs Фильм 51 date in dual audio zombieland ita torrent remember me Irumbu Kotai.

Гран Торино. Боевик, Триллер, Драма. Владелец коллекционной машины В фильме снялся младший сын Клинта Иствуда — Скотт Иствуд. А музыку. Скачать фильм Моя семья и другие животные /My Family . HISTORY BOYS torrent download and . Гран Торино _John.Wick.2014.1080p.BluRay.x264-NTb.mkv.torrent: похоже на фильм К.Иствуда "Гран Торино фильм. Letmetwatchthis 1080P 1080P Movie Hd Movie Watch Official free torrent aXXo Albert Nobbs Downoad Full Movie HD Quality avi Stream torrent.

Cleliagwinn © 2013